<?xml version="1.0" standalone="no"?>
<!DOCTYPE svg PUBLIC "-//W3C//DTD SVG 1.1//EN" "http://www.w3.org/Graphics/SVG/1.1/DTD/svg11.dtd" >
<svg xmlns="http://www.w3.org/2000/svg" xmlns:xlink="http://www.w3.org/1999/xlink" version="1.1">
<metadata>
Created by FontForge 20170731 at Wed Dec  2 21:01:05 2020
 By Aleksey,,,
Copyright (c) 2017 by Deni Anggara. All rights reserved.
</metadata>
<defs>
<font id="AllianceNo.1-ExtraBold" horiz-adv-x="1488" >
  <font-face 
    font-family="Alliance No1 ExtraBold"
    font-weight="800"
    font-stretch="normal"
    units-per-em="2048"
    panose-1="0 0 9 0 0 0 0 0 0 0"
    ascent="1638"
    descent="-410"
    x-height="1108"
    cap-height="1493"
    bbox="-209 -489.782 2054 2081"
    underline-thickness="102"
    underline-position="-816"
    unicode-range="U+000D-FB03"
  />
<missing-glyph horiz-adv-x="748" 
d="M68 0v1365h544v-1365h-544zM136 68h408v1229h-408v-1229z" />
    <glyph glyph-name="uniFB01" unicode="fi" horiz-adv-x="1411" 
d="M14 817v291h211v51q0 194 115.5 292.5t316.5 98.5q92 0 164 -20v-281q-51 11 -86 11q-149 0 -149 -123v-29h717v-1108h-359v817h-358v-817h-361v817h-211zM942 1198v330h361v-330h-361z" />
    <glyph glyph-name="uniFB02" unicode="fl" horiz-adv-x="1415" 
d="M14 817v291h211v51q0 194 115.5 292.5t316.5 98.5q92 0 164 -20v-281q-51 11 -86 11q-151 0 -151 -123v-29h362v424h361v-1532h-361v817h-362v-817h-359v817h-211z" />
    <glyph glyph-name=".notdef" horiz-adv-x="748" 
d="M68 0v1365h544v-1365h-544zM136 68h408v1229h-408v-1229z" />
    <glyph glyph-name="glyph1" horiz-adv-x="0" 
 />
    <glyph glyph-name="glyph2" horiz-adv-x="682" 
 />
    <glyph glyph-name="uni000D" unicode="&#xd;" horiz-adv-x="350" 
 />
    <glyph glyph-name="space" unicode=" " horiz-adv-x="423" 
 />
    <glyph glyph-name="exclam" unicode="!" horiz-adv-x="634" 
d="M127 0v338h381v-338h-381zM135 1051v442h367v-442l-90 -572h-185z" />
    <glyph glyph-name="quotedbl" unicode="&#x22;" horiz-adv-x="1140" 
d="M170 1147v346h322v-346l-84 -397h-156zM649 1147v346h322v-346l-82 -397h-156z" />
    <glyph glyph-name="numbersign" unicode="#" horiz-adv-x="1439" 
d="M98 428v158h240v372h-240v156h240v422h170v-422h428v422h166v-422h237v-156h-237v-372h237v-158h-237v-428h-166v428h-428v-428h-170v428h-240zM508 586h428v372h-428v-372z" />
    <glyph glyph-name="dollar" unicode="$" horiz-adv-x="1167" 
d="M59 535h363q0 -148 162 -148q71 0 106 24t35 66q0 53 -28 71.5t-105 35.5l-160 39q-88 21 -154.5 56.5t-104 74.5t-60.5 88t-30 89.5t-7 84.5q0 161 106.5 271t284.5 138v136h221v-136q170 -28 267.5 -132.5t97.5 -254.5h-363q1 59 -31.5 87t-91.5 28q-108 0 -108 -84
q0 -23 10 -42t22 -29.5t34 -20t34.5 -13t34.5 -8.5l149 -30q100 -21 173 -61t115 -93.5t61.5 -113.5t19.5 -130q0 -177 -115 -288.5t-309 -135.5v-129h-221v134q-188 29 -298 143.5t-110 282.5z" />
    <glyph glyph-name="percent" unicode="%" horiz-adv-x="1841" 
d="M100 1139q0 163 103.5 267.5t269.5 104.5q168 0 272.5 -105.5t104.5 -270.5q0 -162 -106 -268.5t-271 -106.5q-162 0 -267.5 106.5t-105.5 272.5zM324 1141q0 -77 41 -126.5t108 -49.5q68 0 110 49.5t42 126.5q0 74 -42.5 120t-109.5 46q-66 0 -107.5 -46t-41.5 -120z
M369 0l948 1493h164l-953 -1493h-159zM987 358q0 161 104.5 267t270.5 106q167 0 270 -106t103 -271q0 -164 -104 -269t-269 -105q-162 0 -268.5 106t-106.5 272zM1210 360q0 -77 42.5 -126.5t109.5 -49.5t110.5 49.5t43.5 126.5q0 74 -43.5 121t-110.5 47q-66 0 -109 -47.5
t-43 -120.5z" />
    <glyph glyph-name="ampersand" unicode="&#x26;" horiz-adv-x="1650" 
d="M127 377q0 129 72 228.5t217 185.5v16q-105 94 -148 170.5t-43 165.5q0 168 124.5 268t336.5 100q209 0 329 -98t120 -256q0 -107 -62.5 -196t-198.5 -183v-16l203 -221q58 104 105 276l303 -80q-28 -105 -83.5 -219.5t-117.5 -202.5l287 -315h-436l-88 96
q-75 -57 -187 -86.5t-231 -29.5q-146 0 -257.5 43.5t-178 134.5t-66.5 219zM496 434q0 -77 50.5 -120.5t135.5 -43.5q46 0 91 14.5t73 37.5l-246 268q-104 -63 -104 -156zM567 1151q0 -82 101 -180h16q111 103 111 180q0 46 -32 73t-83 27t-82 -27t-31 -73z" />
    <glyph glyph-name="quotesingle" unicode="'" horiz-adv-x="659" 
d="M170 1147v346h322v-346l-84 -397h-156z" />
    <glyph glyph-name="parenleft" unicode="(" horiz-adv-x="755" 
d="M102 657q0 283 126 538.5t331 389.5h201q-212 -135 -345.5 -390.5t-133.5 -537.5q0 -281 133.5 -537.5t345.5 -389.5h-201q-205 132 -331 387t-126 540z" />
    <glyph glyph-name="parenright" unicode=")" horiz-adv-x="724" 
d="M-4 -270q212 133 344.5 389t132.5 538t-132.5 538t-344.5 390h201q204 -134 330 -389t126 -539q0 -287 -125.5 -540.5t-330.5 -386.5h-201z" />
    <glyph glyph-name="asterisk" unicode="*" horiz-adv-x="735" 
d="M66 1079l221 97l-221 96l71 123l189 -144l-27 242h139l-26 -244l186 146l74 -123l-221 -96l221 -97l-74 -125l-186 150l26 -244h-139l27 244l-189 -150z" />
    <glyph glyph-name="plus" unicode="+" horiz-adv-x="1228" 
d="M94 543v276h377v391h285v-391h379v-276h-379v-385h-285v385h-377z" />
    <glyph glyph-name="comma" unicode="," horiz-adv-x="493" 
d="M70 -174q196 0 196 162v12h-160v338h330v-334q0 -142 -99.5 -221.5t-266.5 -79.5v123z" />
    <glyph glyph-name="hyphen" unicode="-" horiz-adv-x="978" 
d="M111 518v193h755v-193h-755z" />
    <glyph glyph-name="period" unicode="." horiz-adv-x="583" 
d="M127 0v365h330v-365h-330z" />
    <glyph glyph-name="slash" unicode="/" horiz-adv-x="718" 
d="M-8 0l549 1493h186l-551 -1493h-184z" />
    <glyph glyph-name="zero" unicode="0" horiz-adv-x="1302" 
d="M76 745q0 357 157.5 553.5t421.5 196.5q267 0 418.5 -202.5t151.5 -551.5q0 -358 -157 -555.5t-419 -197.5q-270 0 -421.5 203t-151.5 554zM451 758q0 -135 14.5 -227.5t42.5 -141t61 -68.5t78 -20q42 0 74 14t54 42.5t36.5 64.5t22.5 86.5t11 102.5t3 118
q0 137 -14.5 230t-42.5 140.5t-60.5 66t-77.5 18.5q-50 0 -86.5 -21.5t-58.5 -57t-35 -92t-17.5 -116t-4.5 -139.5z" />
    <glyph glyph-name="one" unicode="1" horiz-adv-x="976" 
d="M49 938v274h64q145 0 239.5 72.5t106.5 192.5h338v-1477h-361v938h-387z" />
    <glyph glyph-name="two" unicode="2" horiz-adv-x="1200" 
d="M61 0v49q0 60 8 113.5t19.5 98t35 88t44.5 76.5t57.5 71t64.5 63.5t75.5 62t80.5 59.5t89 62q45 30 70.5 49t58.5 48.5t50 55t29.5 60t12.5 72.5q0 74 -44.5 116t-119.5 42q-84 0 -128.5 -53t-35.5 -152h-358q-6 234 143 374t399 140q233 0 375.5 -128t142.5 -345
q0 -155 -79 -269t-228 -218q-28 -20 -103.5 -70t-125.5 -88t-86 -78q150 16 285 16h350v-315h-1082z" />
    <glyph glyph-name="three" unicode="3" horiz-adv-x="1269" 
d="M66 459h358q0 -80 55 -126t146 -46q89 0 141.5 47t52.5 127q0 72 -47 113.5t-123 41.5h-188v269h157q87 0 134 42t47 113q0 70 -47.5 109t-126.5 39q-83 0 -133.5 -44t-53.5 -120h-364q8 215 161.5 343t405.5 128q235 0 380.5 -110t145.5 -295q0 -109 -53 -195.5
t-145 -124.5v-14q106 -32 163.5 -120t57.5 -208q0 -201 -157.5 -324.5t-409.5 -123.5q-257 0 -404 130t-153 349z" />
    <glyph glyph-name="four" unicode="4" horiz-adv-x="1294" 
d="M63 279v268l529 930h493v-906h158v-292h-158v-279h-360v279h-662zM428 571h297v521z" />
    <glyph glyph-name="five" unicode="5" horiz-adv-x="1259" 
d="M68 467h364q0 -77 53 -125.5t140 -48.5q91 0 145.5 55.5t54.5 143.5q0 91 -55.5 149.5t-148.5 58.5q-72 0 -119.5 -32.5t-63.5 -85.5h-344l41 895h942v-314h-622l-13 -219l17 -6q36 27 103 44t136 17q224 0 357 -139.5t133 -359.5q0 -234 -152 -377t-413 -143
q-253 0 -404 134.5t-151 352.5z" />
    <glyph glyph-name="six" unicode="6" horiz-adv-x="1286" 
d="M78 733q0 378 158.5 570t441.5 192q217 0 350.5 -106t161.5 -287h-359q-14 46 -59 70t-104 24q-113 0 -172.5 -87t-51.5 -235h17q40 60 116.5 93.5t174.5 33.5q210 0 338.5 -135.5t128.5 -357.5q0 -237 -151.5 -381.5t-405.5 -144.5q-285 0 -434.5 193.5t-149.5 557.5z
M477 500q0 -96 52 -151.5t139 -55.5q89 0 140.5 56.5t51.5 152.5q0 95 -52 153t-140 58q-87 0 -139 -59t-52 -154z" />
    <glyph glyph-name="seven" unicode="7" horiz-adv-x="1159" 
d="M25 932v545h1095v-263q-200 -267 -351 -591.5t-196 -622.5h-387q37 282 174.5 591.5t331.5 571.5h-381v-231h-286z" />
    <glyph glyph-name="eight" unicode="8" horiz-adv-x="1261" 
d="M72 395q0 117 53.5 203.5t153.5 132.5v17q-100 46 -153.5 132.5t-53.5 200.5q0 186 154 300t407 114q252 0 405.5 -113.5t153.5 -298.5q0 -114 -54.5 -201.5t-152.5 -133.5v-17q98 -46 152.5 -134.5t54.5 -203.5q0 -186 -154.5 -299.5t-406.5 -113.5t-405.5 114.5
t-153.5 300.5zM442 442q0 -72 51 -111.5t138 -39.5q90 0 140 40.5t50 110.5q0 71 -52 111.5t-138 40.5q-89 0 -139 -41.5t-50 -110.5zM442 1032q0 -69 51.5 -108t137.5 -39q89 0 139.5 40t50.5 107q0 72 -52 113t-138 41q-89 0 -139 -42t-50 -112z" />
    <glyph glyph-name="nine" unicode="9" horiz-adv-x="1273" 
d="M57 969q0 237 151.5 381.5t401.5 144.5q286 0 437 -201.5t151 -568.5q0 -743 -604 -743q-210 0 -344.5 107t-161.5 286h358q13 -45 58.5 -69.5t109.5 -24.5q115 0 170.5 86t46.5 235h-16q-38 -60 -114.5 -93.5t-170.5 -33.5q-214 0 -343.5 135.5t-129.5 358.5zM416 975
q0 -94 52.5 -152.5t139.5 -58.5q88 0 139.5 59t51.5 154q0 96 -52 151.5t-139 55.5q-89 0 -140.5 -56.5t-51.5 -152.5z" />
    <glyph glyph-name="colon" unicode=":" horiz-adv-x="583" 
d="M125 0v336h330v-336h-330zM125 772v336h330v-336h-330z" />
    <glyph glyph-name="semicolon" unicode=";" horiz-adv-x="540" 
d="M70 -180q111 0 152.5 39t41.5 118v23h-160v336h330v-316q0 -315 -364 -315v115zM104 772v336h330v-336h-330z" />
    <glyph glyph-name="less" unicode="&#x3c;" horiz-adv-x="1052" 
d="M104 455v266l820 442v-329l-262 -123l-269 -115v-21l281 -108l250 -111v-340z" />
    <glyph glyph-name="equal" unicode="=" horiz-adv-x="1099" 
d="M141 240v286h815v-286h-815zM141 688v289h815v-289h-815z" />
    <glyph glyph-name="greater" unicode="&#x3e;" horiz-adv-x="1052" 
d="M129 16v340l248 111l285 108v21l-271 115l-262 123v329l819 -442v-266z" />
    <glyph glyph-name="question" unicode="?" horiz-adv-x="1224" 
d="M47 1063q17 215 168 331.5t393 116.5q263 0 408 -131t145 -354q0 -168 -112 -293.5t-293 -159.5v-129h-342v408q13 -7 55.5 -12.5t81.5 -5.5q120 0 185 52t65 140q0 84 -54.5 131t-146.5 47q-82 0 -136 -37.5t-63 -103.5h-354zM408 0v332h350v-332h-350z" />
    <glyph glyph-name="at" unicode="@" horiz-adv-x="1875" 
d="M113 647q0 190 62 350.5t173 273.5t270.5 176.5t348.5 63.5q178 0 329.5 -58t257 -159.5t165 -245.5t59.5 -311q0 -241 -114 -385.5t-298 -144.5q-82 0 -148 40t-90 109h-14q-64 -139 -231 -139q-154 0 -238 112.5t-84 295.5q0 189 95.5 310.5t254.5 121.5q69 0 123 -27
t86 -72h13l26 74h133l-37 -491q-3 -72 18 -110t85 -38q106 0 161.5 92t55.5 250q0 188 -79.5 323.5t-214.5 202t-310 66.5q-154 0 -277.5 -51t-203 -142t-122 -212.5t-42.5 -264.5q0 -158 52.5 -288t143.5 -215t212.5 -131t260.5 -46q260 0 486 109v-190
q-209 -103 -494 -103q-189 0 -350 60.5t-277 169.5t-181.5 270t-65.5 354zM758 623q0 -112 40.5 -167t102.5 -55q76 0 129 68.5t53 194.5q0 112 -43 165.5t-106 53.5q-74 0 -125 -67t-51 -193z" />
    <glyph glyph-name="A" unicode="A" 
d="M-6 0l514 1493h446l539 -1493h-420l-72 225h-538l-74 -225h-395zM557 518h352l-45 139l-119 433h-14l-129 -433z" />
    <glyph glyph-name="B" unicode="B" horiz-adv-x="1472" 
d="M141 0v1493h787q199 0 321.5 -104.5t122.5 -276.5q0 -119 -56 -204t-155 -124v-18q125 -34 188.5 -127t63.5 -225q0 -187 -132.5 -300.5t-352.5 -113.5h-787zM512 279h305q33 0 64.5 8t62.5 26.5t49.5 55t18.5 86.5q0 49 -18.5 85t-49 53.5t-62 25.5t-65.5 8h-305v-348z
M512 899h295q77 0 124.5 42.5t47.5 121.5q0 72 -47 111.5t-125 39.5h-295v-315z" />
    <glyph glyph-name="C" unicode="C" horiz-adv-x="1546" 
d="M61 741q0 230 92 405t261 270t391 95q283 0 470.5 -148t213.5 -392h-397q-28 97 -106 153t-183 56q-161 0 -249.5 -115.5t-88.5 -325.5q0 -209 87.5 -318.5t242.5 -109.5q113 0 193.5 58.5t103.5 154.5h397q-26 -244 -217 -394t-467 -150q-342 0 -543 208t-201 553z" />
    <glyph glyph-name="D" unicode="D" horiz-adv-x="1544" 
d="M141 0v1493h645q223 0 381 -95t236 -262t78 -391t-78.5 -390.5t-236.5 -260.5t-380 -94h-645zM522 326h199q66 0 117 10.5t98 39.5t78 76t49 123.5t18 178.5q0 121 -26 204t-76.5 127.5t-112 63t-145.5 18.5h-199v-841z" />
    <glyph glyph-name="E" unicode="E" horiz-adv-x="1310" 
d="M141 0v1493h1078v-326h-697v-239h590v-305h-590v-297h697v-326h-1078z" />
    <glyph glyph-name="F" unicode="F" horiz-adv-x="1269" 
d="M141 0v1493h1084v-326h-703v-350h621v-309h-621v-508h-381z" />
    <glyph glyph-name="G" unicode="G" horiz-adv-x="1642" 
d="M61 729q0 354 203.5 568t542.5 214q269 0 452 -135t211 -356h-397q-25 74 -97 117t-171 43q-167 0 -253.5 -120t-86.5 -325q0 -216 90.5 -325t247.5 -109q122 0 206 63.5t103 167.5h-397v299h813v-831h-311l-17 178h-14q-57 -90 -181 -144t-278 -54q-200 0 -352 94.5
t-233 264t-81 390.5z" />
    <glyph glyph-name="H" unicode="H" horiz-adv-x="1656" 
d="M141 0v1493h381v-586h613v586h381v-1493h-381v608h-613v-608h-381z" />
    <glyph glyph-name="I" unicode="I" horiz-adv-x="663" 
d="M141 0v1493h381v-1493h-381z" />
    <glyph glyph-name="J" unicode="J" horiz-adv-x="874" 
d="M31 0v305q52 -10 123 -10q115 0 163 57t48 170v971h380v-1020q0 -491 -505 -491q-126 0 -209 18z" />
    <glyph glyph-name="K" unicode="K" horiz-adv-x="1521" 
d="M141 0v1493h381v-627l502 627h471l-541 -647l562 -846h-463l-359 537l-172 -207v-330h-381z" />
    <glyph glyph-name="L" unicode="L" horiz-adv-x="1173" 
d="M141 0v1493h381v-1155h576v-338h-957z" />
    <glyph glyph-name="M" unicode="M" horiz-adv-x="1882" 
d="M141 0v1493h469l326 -745h16l320 745h471v-1493h-371v563l21 402h-15l-434 -945l-434 945h-18l22 -406v-559h-373z" />
    <glyph glyph-name="N" unicode="N" horiz-adv-x="1624" 
d="M141 0v1493h437l532 -948h16l-22 420v528h379v-1493h-436l-529 938h-16l20 -406v-532h-381z" />
    <glyph glyph-name="O" unicode="O" horiz-adv-x="1597" 
d="M61 748q0 361 199.5 562t536.5 201q234 0 401.5 -96.5t251.5 -267t84 -399.5q0 -183 -53 -328.5t-150 -242t-232.5 -147t-301.5 -50.5q-233 0 -400 96t-251.5 268.5t-84.5 403.5zM465 748q0 -207 90 -321t242 -114q161 0 248.5 118.5t87.5 316.5q0 202 -91 317t-245 115
q-157 0 -244.5 -118t-87.5 -314z" />
    <glyph glyph-name="P" unicode="P" horiz-adv-x="1417" 
d="M141 0v1493h682q251 0 403 -143t152 -377t-152.5 -378t-402.5 -144h-301v-451h-381zM522 774h246q205 0 205 193q0 188 -205 188h-246v-381z" />
    <glyph glyph-name="Q" unicode="Q" horiz-adv-x="1597" 
d="M61 748q0 361 199.5 562t536.5 201q234 0 401.5 -96.5t251.5 -267t84 -399.5q0 -276 -117 -461t-327 -260q112 -62 280 -62q76 0 135 12v-331q-53 -6 -104 -6q-244 0 -403 91t-228 249q-338 9 -523.5 216t-185.5 552zM465 748q0 -207 90 -321t242 -114q161 0 248.5 118.5
t87.5 316.5q0 202 -91 317t-245 115q-157 0 -244.5 -118t-87.5 -314z" />
    <glyph glyph-name="R" unicode="R" horiz-adv-x="1474" 
d="M141 0v1493h703q258 0 404.5 -137.5t146.5 -370.5q0 -142 -71 -257t-189 -159v-16q51 -22 85.5 -73t71.5 -144l138 -336h-418l-148 346q-33 78 -74 104.5t-133 26.5h-135v-477h-381zM522 784h250q97 0 157 46t60 139q0 92 -57.5 138t-159.5 46h-250v-369z" />
    <glyph glyph-name="S" unicode="S" horiz-adv-x="1382" 
d="M47 471h395q5 -88 72.5 -138t185.5 -50q101 0 156 38.5t55 104.5q0 36 -15.5 61.5t-43.5 39.5t-51.5 20.5t-52.5 12.5q-5 1 -7 1l-219 45q-155 33 -238 76q-210 110 -210 350q0 218 163.5 348.5t434.5 130.5q265 0 428 -122.5t168 -325.5h-396q-6 74 -64.5 112.5
t-148.5 38.5q-89 0 -134.5 -33t-45.5 -89q0 -19 6 -35t13.5 -27t23 -21.5t25.5 -16t31 -11.5t30 -8t31.5 -6.5t26.5 -5.5l231 -46q422 -80 422 -440q0 -234 -171 -364.5t-460 -130.5q-291 0 -465 134.5t-176 356.5z" />
    <glyph glyph-name="T" unicode="T" horiz-adv-x="1189" 
d="M14 1163v330h1162v-330h-396v-1163h-383v1163h-383z" />
    <glyph glyph-name="U" unicode="U" horiz-adv-x="1576" 
d="M129 578v915h379v-893q0 -133 73 -208t207 -75q131 0 206 73.5t75 209.5v893h381v-915q0 -280 -181 -439t-483 -159q-167 0 -294 43t-206 123t-118 188t-39 244z" />
    <glyph glyph-name="V" unicode="V" horiz-adv-x="1525" 
d="M4 1493h426l184 -596l140 -530h16l145 530l181 596h426l-518 -1493h-480z" />
    <glyph glyph-name="W" unicode="W" horiz-adv-x="2066" 
d="M12 1493h422l115 -705l51 -370h16l187 1075h467l192 -1079h17l45 368l110 711h420l-303 -1493h-520l-187 975h-16l-190 -975h-523z" />
    <glyph glyph-name="X" unicode="X" horiz-adv-x="1490" 
d="M4 1495h477l140 -272l120 -258h17l112 254l134 276h469l-420 -752l436 -743h-477l-113 215l-141 289h-15l-137 -291l-104 -213h-469l411 743z" />
    <glyph glyph-name="Y" unicode="Y" horiz-adv-x="1490" 
d="M0 1493h451l133 -283l153 -315h15l153 309l137 289h449l-555 -934v-559h-383v559z" />
    <glyph glyph-name="Z" unicode="Z" horiz-adv-x="1208" 
d="M41 0v313l643 852h-643v328h1120v-311l-649 -856h637v-326h-1108z" />
    <glyph glyph-name="bracketleft" unicode="[" horiz-adv-x="634" 
d="M178 -487v2115h404v-153h-238v-1817h238v-145h-404z" />
    <glyph glyph-name="backslash" unicode="\" horiz-adv-x="720" 
d="M-8 1493h186l549 -1493h-184z" />
    <glyph glyph-name="bracketright" unicode="]" horiz-adv-x="634" 
d="M51 -342h240v1817h-240v153h404v-2115h-404v145z" />
    <glyph glyph-name="asciicircum" unicode="^" horiz-adv-x="942" 
d="M43 961l315 532h228l313 -532h-274l-152 258l-156 -258h-274z" />
    <glyph glyph-name="underscore" unicode="_" horiz-adv-x="727" 
d="M-4 0h735v-182h-735v182z" />
    <glyph glyph-name="grave" unicode="`" horiz-adv-x="843" 
d="M90 1737l146 237l456 -342l-104 -172z" />
    <glyph glyph-name="a" unicode="a" horiz-adv-x="1161" 
d="M39 311q0 168 109 262.5t294 94.5h277v61q0 65 -40 97t-112 32q-71 0 -112 -31.5t-41 -85.5h-351q17 185 158.5 286t370.5 101q246 0 367.5 -115t121.5 -319v-694h-313l-37 180h-18q-35 -99 -124.5 -149.5t-207.5 -50.5q-155 0 -248.5 91t-93.5 240zM401 352
q0 -48 34.5 -76t96.5 -28q89 0 139 49.5t50 130.5v23h-186q-66 0 -100 -26t-34 -73z" />
    <glyph glyph-name="b" unicode="b" horiz-adv-x="1339" 
d="M109 0v1532h360v-625h18q38 102 129 161.5t224 59.5q206 0 328 -151.5t122 -423.5q0 -266 -117.5 -419.5t-322.5 -153.5q-122 0 -219.5 56.5t-143.5 162.5h-18l-49 -199h-311zM469 524q0 -123 61 -188.5t164 -65.5q111 0 170.5 75.5t59.5 207.5q0 142 -62.5 213.5
t-167.5 71.5q-108 0 -166.5 -70t-58.5 -188v-56z" />
    <glyph glyph-name="c" unicode="c" horiz-adv-x="1173" 
d="M49 555q0 258 154 415.5t409 157.5q218 0 363.5 -119t157.5 -317h-355q-12 71 -57.5 107.5t-112.5 36.5q-97 0 -145.5 -74.5t-48.5 -208.5q0 -141 51 -211t141 -70q74 0 118 39.5t52 106.5h357q-9 -198 -155.5 -318t-369.5 -120q-252 0 -405.5 158.5t-153.5 416.5z" />
    <glyph glyph-name="d" unicode="d" horiz-adv-x="1341" 
d="M49 549q0 272 120.5 425.5t324.5 153.5q135 0 226.5 -63t131.5 -168h20v635h361v-1532h-313l-48 199h-20q-46 -106 -143 -162.5t-215 -56.5q-207 0 -326 153t-119 416zM416 553q0 -141 59 -212t162 -71q114 0 174.5 68.5t60.5 185.5v56q0 126 -62.5 192t-168.5 66
q-110 0 -167.5 -77t-57.5 -208z" />
    <glyph glyph-name="e" unicode="e" horiz-adv-x="1189" 
d="M49 551q0 262 152.5 419.5t402.5 157.5q241 0 386 -137.5t145 -365.5q0 -86 -17 -156h-710v-14q0 -93 48 -147q52 -58 148 -58q66 0 116.5 29.5t65.5 76.5h355q-29 -169 -175.5 -272.5t-355.5 -103.5q-252 0 -406.5 156.5t-154.5 414.5zM412 700h362q-2 74 -50.5 117
t-131.5 43q-79 0 -128 -44t-52 -116z" />
    <glyph glyph-name="f" unicode="f" horiz-adv-x="835" 
d="M14 817v291h211v51q0 194 115.5 292.5t316.5 98.5q92 0 164 -20v-281q-51 11 -86 11q-149 0 -149 -123v-29h235v-291h-235v-817h-361v817h-211z" />
    <glyph glyph-name="g" unicode="g" horiz-adv-x="1165" 
d="M16 -137q0 76 47 133t123 74v16q-59 22 -93 68t-34 104q0 74 44.5 127.5t125.5 81.5v16q-83 44 -126.5 118t-43.5 167q0 163 127.5 261.5t335.5 98.5q95 0 162 -20q34 111 141.5 178.5t251.5 67.5v-271q-65 0 -117.5 -16.5t-72.5 -44.5q129 -100 129 -264
q0 -162 -125.5 -259.5t-331.5 -97.5q-71 0 -131 13q-43 -19 -43 -62q0 -40 33.5 -52.5t95.5 -12.5h231q186 0 285.5 -88.5t99.5 -239.5q0 -94 -43.5 -163.5t-125.5 -111.5t-192 -62.5t-251 -20.5q-249 0 -375.5 70t-126.5 192zM352 -63q0 -43 45 -63.5t142 -20.5
q119 0 176 21.5t57 72.5q0 61 -88 61h-229q-103 0 -103 -71zM410 766q0 -55 35.5 -88t93.5 -33q59 0 94 33t35 88t-35 88t-94 33q-58 0 -93.5 -33.5t-35.5 -87.5z" />
    <glyph glyph-name="h" unicode="h" horiz-adv-x="1325" 
d="M109 0v1532h360v-623h18q50 107 144 163t217 56q193 0 287 -126t94 -343v-659h-363v623q0 213 -184 213q-102 0 -157.5 -67t-55.5 -177v-592h-360z" />
    <glyph glyph-name="i" unicode="i" horiz-adv-x="575" 
d="M109 0v1108h360v-1108h-360zM109 1198v330h360v-330h-360z" />
    <glyph glyph-name="j" unicode="j" horiz-adv-x="577" 
d="M-98 -68q14 -4 57 -4t73.5 13.5t45 30t22 43.5t8.5 41.5t1 37.5v6v1008h360v-1067q0 -197 -112.5 -299t-305.5 -102q-87 0 -149 12v280zM109 1198v330h360v-330h-360z" />
    <glyph glyph-name="k" unicode="k" horiz-adv-x="1267" 
d="M109 0v1532h364v-795l340 371h442l-411 -430l434 -678h-410l-270 420l-125 -131v-289h-364z" />
    <glyph glyph-name="l" unicode="l" horiz-adv-x="575" 
d="M109 0v1532h360v-1532h-360z" />
    <glyph glyph-name="m" unicode="m" horiz-adv-x="1933" 
d="M109 0v1108h313l45 -203h20q48 115 120 169t188 54q234 0 317 -221h23q101 221 340 221q183 0 272.5 -127.5t89.5 -343.5v-657h-360v621q0 107 -38 161t-110 54q-87 0 -132.5 -57t-45.5 -150v-629h-360v629q0 207 -150 207q-82 0 -127 -54.5t-45 -144.5v-637h-360z" />
    <glyph glyph-name="n" unicode="n" horiz-adv-x="1323" 
d="M109 0v1108h315l45 -203h18q51 109 144 166t217 57q98 0 172 -34.5t118.5 -98t66.5 -148t22 -190.5v-657h-361v621q0 215 -184 215q-102 0 -157.5 -69t-55.5 -181v-586h-360z" />
    <glyph glyph-name="o" unicode="o" horiz-adv-x="1222" 
d="M49 555q0 255 154.5 414t408.5 159q252 0 407 -159.5t155 -415.5q0 -254 -154.5 -412.5t-407.5 -158.5q-254 0 -408.5 158.5t-154.5 414.5zM414 553q0 -130 54 -204.5t142 -74.5q95 0 146 76.5t51 204.5q0 129 -53.5 205t-145.5 76q-93 0 -143.5 -78t-50.5 -205z" />
    <glyph glyph-name="p" unicode="p" horiz-adv-x="1339" 
d="M109 -342v1450h311l49 -205h18q45 106 141.5 165.5t215.5 59.5q208 0 327 -155t119 -420q0 -270 -120.5 -421.5t-323.5 -151.5q-134 0 -227.5 59t-131.5 160h-18v-541h-360zM469 528q0 -116 60.5 -187t164.5 -71q112 0 171 78t59 209q0 135 -61 208t-165 73t-166.5 -72
t-62.5 -188v-50z" />
    <glyph glyph-name="q" unicode="q" horiz-adv-x="1341" 
d="M49 553q0 266 118.5 420.5t324.5 154.5q121 0 217 -59t143 -166h20l48 205h313v-1450h-361v541h-20q-41 -102 -132.5 -160.5t-225.5 -58.5q-203 0 -324 150.5t-121 422.5zM416 559q0 -131 56 -210t169 -79q107 0 169 71t62 187v50q0 115 -64.5 187.5t-168.5 72.5
q-106 0 -164.5 -72.5t-58.5 -206.5z" />
    <glyph glyph-name="r" unicode="r" horiz-adv-x="829" 
d="M109 0v1108h313l45 -205h14q76 225 338 225v-311h-15q-170 1 -250 -89q-84 -94 -85 -269v-459h-360z" />
    <glyph glyph-name="s" unicode="s" horiz-adv-x="1107" 
d="M51 352h355q1 -61 42 -91t111 -30q64 0 97.5 23t33.5 63q0 24 -8.5 40t-27.5 25t-30.5 12t-37.5 7l-183 31q-335 57 -335 330q0 174 128 270t347 96q220 0 346.5 -95.5t132.5 -256.5h-354q0 50 -34.5 75.5t-96.5 25.5q-52 0 -80.5 -21.5t-28.5 -60.5q0 -20 8.5 -35
t19.5 -23.5t31 -15t33 -9t37 -5.5l182 -29q163 -25 240.5 -110.5t77.5 -213.5q0 -178 -135.5 -276t-364.5 -98q-240 0 -373 103t-133 269z" />
    <glyph glyph-name="t" unicode="t" horiz-adv-x="831" 
d="M10 817v291h174v252l361 139v-391h233v-291h-233v-414q0 -74 29.5 -105.5t95.5 -31.5t108 10v-276q-108 -20 -219 -20q-98 0 -169 23t-110 57.5t-61.5 88t-28.5 100t-6 107.5v461h-174z" />
    <glyph glyph-name="u" unicode="u" horiz-adv-x="1302" 
d="M96 420v688h363v-631q0 -102 45 -153.5t131 -51.5q97 0 153 69.5t56 180.5v586h360v-1108h-317l-45 203h-21q-104 -223 -352 -223q-186 0 -279.5 118t-93.5 322z" />
    <glyph glyph-name="v" unicode="v" horiz-adv-x="1144" 
d="M-18 1108h389l102 -418l92 -389h13l196 807h389l-364 -1108h-451z" />
    <glyph glyph-name="w" unicode="w" horiz-adv-x="1662" 
d="M8 1108h348l80 -416l62 -332h16l123 748h391l117 -752h12l60 332l88 420h350l-275 -1108h-438l-76 434l-35 215h-12l-35 -213l-75 -436h-428z" />
    <glyph glyph-name="x" unicode="x" horiz-adv-x="1110" 
d="M-10 0l362 551l-356 557h371l192 -334h16l193 334h367l-351 -557l357 -551h-379l-193 315h-16l-195 -315h-368z" />
    <glyph glyph-name="y" unicode="y" horiz-adv-x="1112" 
d="M-27 1108h385l111 -385l82 -305h16l80 305l107 385h374l-393 -1131q-34 -98 -84.5 -165t-119.5 -104.5t-148.5 -53.5t-183.5 -16q-81 0 -156 14v287q55 -9 125 -9q171 0 201 109l12 45z" />
    <glyph glyph-name="z" unicode="z" horiz-adv-x="1024" 
d="M66 817v291h882v-254l-438 -565h448v-289h-886v258l436 559h-442z" />
    <glyph glyph-name="braceleft" unicode="{" horiz-adv-x="698" 
d="M111 496v157q73 0 110 42.5t37 113.5v633q0 85 47.5 135.5t138.5 50.5h203v-153h-219v-654q0 -101 -42.5 -162t-119.5 -75v-6q80 -21 121 -84t41 -158v-678h219v-145h-203q-89 0 -137.5 48.5t-48.5 137.5v647q0 78 -40.5 114t-106.5 36z" />
    <glyph glyph-name="bar" unicode="|" horiz-adv-x="610" 
d="M152 -113v1655h297v-1655h-297z" />
    <glyph glyph-name="braceright" unicode="}" horiz-adv-x="698" 
d="M51 -342h215v678q0 95 42.5 157.5t123.5 84.5v6q-78 14 -122 74.5t-44 162.5v654h-215v153h203q89 0 135.5 -50t46.5 -136v-633q0 -70 38.5 -113t111.5 -43v-157q-65 0 -107.5 -36t-42.5 -114v-647q0 -88 -45.5 -137t-136.5 -49h-203v145z" />
    <glyph glyph-name="asciitilde" unicode="~" horiz-adv-x="919" 
d="M33 524q-6 98 12 171t54.5 113t80 58.5t94.5 18.5q50 0 100 -19.5t84 -43t78.5 -43t84.5 -19.5q110 0 110 135h158q6 -98 -13.5 -172t-58 -114t-83 -59.5t-93.5 -19.5q-60 0 -117 20t-93 43.5t-77.5 43.5t-74.5 20q-48 0 -70 -38t-16 -95h-160z" />
    <glyph glyph-name="uni00A0" unicode="&#xa0;" horiz-adv-x="423" 
 />
    <glyph glyph-name="exclamdown" unicode="&#xa1;" horiz-adv-x="634" 
d="M127 1153v340h381v-340h-381zM135 0v442l92 572h185l90 -572v-442h-367z" />
    <glyph glyph-name="cent" unicode="&#xa2;" horiz-adv-x="1140" 
d="M43 745q0 211 106.5 348t292.5 171v168h222v-166q169 -26 275.5 -133.5t119.5 -266.5h-357q-7 57 -48 90t-101 33q-160 0 -160 -244q0 -239 160 -239q58 0 98 32.5t49 88.5h353q-12 -159 -117 -266.5t-272 -133.5v-166h-222v168q-186 33 -292.5 167t-106.5 349z" />
    <glyph glyph-name="sterling" unicode="&#xa3;" horiz-adv-x="1343" 
d="M31 0v307h135v301h-135v287h135v137q0 220 141.5 349.5t376.5 129.5q215 0 352.5 -116.5t149.5 -307.5h-371q-10 53 -46.5 79t-88.5 26q-66 0 -104.5 -39.5t-38.5 -120.5v-137h450v-287h-450v-301h403v182h307v-489h-1216z" />
    <glyph glyph-name="currency" unicode="&#xa4;" horiz-adv-x="1218" 
d="M47 1116l168 172l152 -174q120 69 247.5 71.5t247.5 -65.5l146 168l163 -174l-149 -141q58 -82 80 -174t2 -192.5t-86 -190.5l156 -146l-162 -168l-148 172q-131 -73 -256.5 -69.5t-238.5 76.5l-154 -179l-166 170l164 152q-96 127 -95 270t95 271zM432 694
q0 -83 51.5 -137.5t128.5 -56.5q77 2 131 57t54 139q0 86 -54 139.5t-131 53.5t-129 -56t-51 -139z" />
    <glyph glyph-name="yen" unicode="&#xa5;" horiz-adv-x="1454" 
d="M0 1493h449l182 -399l86 -226h16l90 226l187 399h444l-375 -662h129v-286h-290v-88h290v-287h-290v-170h-379v170h-289v287h289v88h-289v286h125z" />
    <glyph glyph-name="brokenbar" unicode="&#xa6;" horiz-adv-x="610" 
d="M152 -127v737h297v-737h-297zM152 780v762h297v-762h-297z" />
    <glyph glyph-name="section" unicode="&#xa7;" horiz-adv-x="1181" 
d="M70 666q0 111 67.5 179.5t175.5 86.5v18q-82 29 -126 88t-44 142q0 145 127 238t348 93q199 0 322.5 -89.5t128.5 -237.5h-371q-5 61 -84 61q-65 0 -65 -49q0 -7 1 -13.5t4.5 -12t6.5 -9t9.5 -8t10 -6.5t13 -5.5t13.5 -5t15 -5.5t15 -5l172 -59q51 -17 83 -29.5t78 -39
t73 -56t47 -77.5t20 -107q0 -182 -174 -256v-21q69 -23 111.5 -92t42.5 -156q0 -156 -135.5 -250t-358.5 -94q-210 0 -338.5 84.5t-140.5 233.5h387q8 -57 82 -57q46 0 70 18.5t24 48.5q0 31 -22.5 46.5t-71.5 31.5l-271 88q-32 11 -54 20t-62 33.5t-64.5 52t-44.5 74.5
t-20 103zM457 754q0 -60 88 -90l108 -43q17 -7 42 -15.5t40 -13.5q19 34 19 67q0 24 -8.5 42t-28 30t-32.5 17.5t-40 15.5l-70 29q-80 28 -88 32q-30 -24 -30 -71z" />
    <glyph glyph-name="dieresis" unicode="&#xa8;" horiz-adv-x="874" 
d="M70 1497v320h272v-320h-272zM514 1497v320h272v-320h-272z" />
    <glyph glyph-name="copyright" unicode="&#xa9;" horiz-adv-x="1955" 
d="M113 700q0 188 72.5 351.5t192.5 274.5t277 174t326 63q135 0 263 -39.5t236 -115t189.5 -178.5t127.5 -238.5t46 -286.5q0 -186 -70.5 -350t-189 -277.5t-275.5 -178.5t-327 -65q-134 0 -262.5 39.5t-237.5 116t-191.5 180.5t-129.5 241t-47 289zM203 700
q0 -137 40.5 -260.5t113 -218t169 -163.5t213.5 -105.5t242 -36.5q156 0 297 57t246 158.5t167 250.5t62 323q0 170 -62 316.5t-167 247t-246 157.5t-297 57q-157 0 -299 -57t-248 -158t-168.5 -248.5t-62.5 -319.5zM506 700q0 205 138.5 341.5t348.5 136.5q122 0 226 -48
t166.5 -134.5t64.5 -192.5h-225q-9 78 -72.5 126t-157.5 48q-124 0 -193 -80t-69 -201q0 -120 67.5 -197t190.5 -77q94 0 159.5 46t74.5 124h225q-7 -110 -70.5 -195.5t-164.5 -130.5t-220 -45q-141 0 -253.5 64t-174 173.5t-61.5 241.5z" />
    <glyph glyph-name="ordfeminine" unicode="&#xaa;" horiz-adv-x="948" 
d="M82 928q0 115 81 183.5t222 68.5h156v24q0 40 -28 61t-73 21q-84 0 -94 -61h-256q8 118 106 193t263 75q169 0 256.5 -82t87.5 -219v-234q0 -53 51 -53q22 0 25 2v-198q-47 -17 -115 -17q-87 0 -136.5 42t-54.5 118h-6q-22 -76 -84.5 -117t-154.5 -41q-113 0 -179.5 65.5
t-66.5 168.5zM340 950q0 -28 22.5 -43.5t61.5 -15.5q51 0 84 29t33 73v23h-109q-45 0 -68.5 -18.5t-23.5 -47.5z" />
    <glyph glyph-name="guillemotleft" unicode="&#xab;" horiz-adv-x="1169" 
d="M68 561l245 443h303l-219 -443l219 -446h-303zM571 561l242 443h309l-223 -443l223 -446h-309z" />
    <glyph glyph-name="logicalnot" unicode="&#xac;" horiz-adv-x="1165" 
d="M94 588v282h973v-581h-274v299h-699z" />
    <glyph glyph-name="uni00AD" unicode="&#xad;" horiz-adv-x="978" 
d="M111 518v193h755v-193h-755z" />
    <glyph glyph-name="registered" unicode="&#xae;" horiz-adv-x="1255" 
d="M80 969q0 120 42.5 222t116 171.5t174 109t214.5 39.5t215.5 -39.5t175.5 -109t117 -171.5t43 -222q0 -158 -73.5 -282.5t-199 -192.5t-278.5 -68t-277.5 68t-197 192.5t-72.5 282.5zM164 969q0 -135 63 -241t168 -163t232 -57q129 0 234.5 57.5t168 164t62.5 241.5
q0 206 -134 336.5t-331 130.5q-195 0 -329 -131.5t-134 -337.5zM428 743v482h246q79 0 119.5 -38t40.5 -102q0 -83 -70 -122v-2q63 -24 63 -99v-57q0 -42 9 -62h-129q-9 18 -9 60v37q0 31 -13.5 46t-47.5 15h-82v-158h-127zM555 999h80q63 0 63 62q0 29 -17.5 44t-47.5 15
h-78v-121z" />
    <glyph glyph-name="macron" unicode="&#xaf;" horiz-adv-x="731" 
d="M-18 1489v270h770v-270h-770z" />
    <glyph glyph-name="degree" unicode="&#xb0;" horiz-adv-x="880" 
d="M102 1169q0 148 94 241t242 93t244 -93t96 -241q0 -143 -96.5 -237t-243.5 -94t-241.5 94t-94.5 237zM340 1169q0 -43 28.5 -74.5t69.5 -31.5q42 0 71.5 31.5t29.5 74.5q0 50 -28.5 79.5t-72.5 29.5q-42 0 -70 -29.5t-28 -79.5z" />
    <glyph glyph-name="plusminus" unicode="&#xb1;" horiz-adv-x="1232" 
d="M94 0v276h1045v-276h-1045zM94 664v274h379v299h283v-299h383v-274h-383v-306h-283v306h-379z" />
    <glyph glyph-name="uni00B2" unicode="&#xb2;" horiz-adv-x="940" 
d="M53 1389q4 182 118.5 286.5t299.5 104.5q184 0 295 -98.5t111 -258.5q0 -74 -26 -139t-66 -111.5t-93 -92t-102.5 -79.5t-99.5 -76.5t-78 -80.5l135 6h334v-236h-803v39q0 94 28.5 175.5t74 138.5t100.5 106.5t110 90.5t100.5 80t74 85t28.5 96q0 58 -35.5 90.5
t-97.5 32.5q-67 0 -104 -42t-31 -117h-273z" />
    <glyph glyph-name="uni00B3" unicode="&#xb3;" horiz-adv-x="972" 
d="M55 1419q-8 163 108.5 262t315.5 99q181 0 292.5 -86t111.5 -226q0 -81 -39.5 -144.5t-114.5 -98.5v-11q86 -35 133 -107t47 -167q0 -152 -119.5 -247t-312.5 -95q-190 0 -305 100.5t-113 264.5h273q-2 -58 40 -96t113 -38q69 0 108.5 38.5t39.5 101.5q0 64 -43.5 95.5
t-118.5 31.5h-127v213h100q81 0 121.5 33t40.5 92q0 53 -36.5 83.5t-96.5 30.5q-69 0 -109 -35.5t-36 -93.5h-273z" />
    <glyph glyph-name="acute" unicode="&#xb4;" horiz-adv-x="843" 
d="M158 1624l456 342l146 -237l-498 -279z" />
    <glyph glyph-name="paragraph" unicode="&#xb6;" horiz-adv-x="1398" 
d="M63 1065q0 202 129.5 315t344.5 113h749v-219h-131v-1282q0 -173 -94 -258.5t-264 -85.5h-564v200h277v811q-207 0 -327 114t-120 292zM745 -152h33q72 0 104.5 32t32.5 97v1297h-170v-1426z" />
    <glyph glyph-name="periodcentered" unicode="&#xb7;" horiz-adv-x="714" 
d="M127 580q0 99 67.5 169t161.5 70q96 0 164 -70t68 -169q0 -97 -68 -166.5t-164 -69.5q-94 0 -161.5 69t-67.5 167z" />
    <glyph glyph-name="cedilla" unicode="&#xb8;" horiz-adv-x="1032" 
d="M313 -281q59 -35 115 -42.5t91.5 15.5t35.5 72q0 51 -55.5 67t-110.5 -13v82l105 174h137v-45l-60 -111q29 1 62 -8t66.5 -28t55 -56t21.5 -86q0 -80 -47.5 -136t-118 -76.5t-151 -13.5t-146.5 42v163z" />
    <glyph glyph-name="uni00B9" unicode="&#xb9;" horiz-adv-x="710" 
d="M10 1354v207h51q111 0 185 56t80 148h254v-1151h-269v740h-301z" />
    <glyph glyph-name="ordmasculine" unicode="&#xba;" horiz-adv-x="978" 
d="M94 1094q0 177 109 288t286 111q178 0 287 -111.5t109 -289.5q0 -175 -109.5 -285.5t-286.5 -110.5q-176 0 -285.5 111t-109.5 287zM358 1094q0 -86 36 -137.5t95 -51.5q63 0 97.5 54.5t34.5 136.5q0 84 -36 135t-98 51q-63 0 -96 -51.5t-33 -136.5z" />
    <glyph glyph-name="guillemotright" unicode="&#xbb;" horiz-adv-x="1169" 
d="M49 115l221 446l-221 443h307l242 -443l-242 -446h-307zM549 115l223 446l-223 443h309l242 -443l-242 -446h-309z" />
    <glyph glyph-name="onequarter" unicode="&#xbc;" horiz-adv-x="1880" 
d="M45 1141v178h92q88 0 133 44.5t45 123.5v6h211v-969h-225v617h-256zM356 -94l848 1667h273l-850 -1667h-271zM1149 170v180l311 633h334v-616h94v-197h-94v-170h-221v170h-424zM1397 367h176v362z" />
    <glyph glyph-name="onehalf" unicode="&#xbd;" horiz-adv-x="1966" 
d="M45 1141v178h92q88 0 133 44.5t45 123.5v6h211v-969h-225v617h-256zM356 -94l848 1667h273l-850 -1667h-271zM1225 676q3 143 100 231t252 88q153 0 238.5 -83.5t85.5 -219.5q0 -75 -29.5 -139t-77 -111.5t-97 -86.5t-101 -83.5t-76.5 -83.5l114 7h256v-195h-647v33
q0 80 23.5 149t61.5 118t84 91.5t92 77.5t84 68.5t61.5 73t23.5 81.5q0 53 -30 83t-80 30q-57 0 -86.5 -38.5t-26.5 -102.5z" />
    <glyph glyph-name="threequarters" unicode="&#xbe;" horiz-adv-x="1996" 
d="M29 1200q-3 136 87 220.5t251 84.5q149 0 235 -72.5t86 -189.5q0 -149 -131 -205v-10q76 -30 115 -90t39 -141q0 -128 -95 -208.5t-243 -80.5q-152 0 -245.5 84.5t-92.5 220.5h223q2 -46 33 -78.5t78 -32.5q50 0 81 31t31 78q0 48 -33.5 76t-85.5 28h-90v201h62
q61 0 93 29.5t32 75.5q0 45 -28 67.5t-71 22.5q-50 0 -79 -30.5t-27 -80.5h-225zM475 -94l848 1667h272l-850 -1667h-270zM1266 170v180l311 633h334v-616h94v-197h-94v-170h-221v170h-424zM1513 367h177v362z" />
    <glyph glyph-name="questiondown" unicode="&#xbf;" horiz-adv-x="1224" 
d="M63 467q0 168 112.5 293.5t293.5 159.5v129h342v-408q-13 7 -55.5 12.5t-81.5 5.5q-120 0 -185 -52t-65 -140q0 -84 54.5 -131t146.5 -47q82 0 135.5 37.5t62.5 103.5h355q-17 -214 -168.5 -331t-393.5 -117q-263 0 -408 131t-145 354zM467 1161v332h350v-332h-350z" />
    <glyph glyph-name="Agrave" unicode="&#xc0;" 
d="M-6 0l514 1493h446l539 -1493h-420l-72 225h-538l-74 -225h-395zM233 1843l146 238l457 -342l-105 -172zM557 518h352l-45 139l-119 433h-14l-129 -433z" />
    <glyph glyph-name="Aacute" unicode="&#xc1;" 
d="M-6 0l514 1493h446l539 -1493h-420l-72 225h-538l-74 -225h-395zM557 518h352l-45 139l-119 433h-14l-129 -433zM625 1731l456 342l146 -238l-498 -279z" />
    <glyph glyph-name="Acircumflex" unicode="&#xc2;" 
d="M-6 0l514 1493h446l539 -1493h-420l-72 225h-538l-74 -225h-395zM330 1731l301 290h198l304 -290l-170 -166l-232 250l-233 -250zM557 518h352l-45 139l-119 433h-14l-129 -433z" />
    <glyph glyph-name="Atilde" unicode="&#xc3;" 
d="M-6 0l514 1493h446l539 -1493h-420l-72 225h-538l-74 -225h-395zM336 1679q48 123 120.5 176.5t149.5 51.5q61 0 134.5 -39t121.5 -39q26 0 47 7t37 23t20.5 21.5t15.5 24.5q2 3 3 4l145 -90q-42 -121 -114.5 -179.5t-155.5 -58.5q-58 1 -133.5 41.5t-120.5 40.5
q-28 0 -53 -13t-39 -26t-37 -39zM557 518h352l-45 139l-119 433h-14l-129 -433z" />
    <glyph glyph-name="Adieresis" unicode="&#xc4;" 
d="M-6 0l514 1493h446l539 -1493h-420l-72 225h-538l-74 -225h-395zM371 1589v320h272v-320h-272zM557 518h352l-45 139l-119 433h-14l-129 -433zM815 1589v320h272v-320h-272z" />
    <glyph glyph-name="Aring" unicode="&#xc5;" 
d="M-6 0l514 1493h16q-67 70 -67 180q0 118 76.5 190t197.5 72t198 -72t77 -190q0 -109 -68 -180h16l539 -1493h-420l-72 225h-538l-74 -225h-395zM557 518h352l-45 139l-119 433h-14l-129 -433zM647 1673q0 -40 23 -66t61 -26t62 26t24 66q0 43 -24 68.5t-62 25.5
t-61 -25.5t-23 -68.5z" />
    <glyph glyph-name="AE" unicode="&#xc6;" horiz-adv-x="2045" 
d="M-6 0l461 1493h1501v-326h-672v-274h563v-303h-563v-264h672v-326h-1055v311h-422l-90 -311h-395zM563 604h338v563h-176z" />
    <glyph glyph-name="Ccedilla" unicode="&#xc7;" horiz-adv-x="1546" 
d="M61 741q0 230 92 405t261 270t391 95q283 0 470.5 -148t213.5 -392h-397q-28 97 -106 153t-183 56q-161 0 -249.5 -115.5t-88.5 -325.5q0 -209 87.5 -318.5t242.5 -109.5q113 0 193.5 58.5t103.5 154.5h397q-26 -244 -217 -394t-467 -150l-35 -64q29 1 62 -8t66.5 -28
t55 -56t21.5 -86q0 -80 -47.5 -136t-118 -76.5t-151 -13.5t-146.5 42v163q59 -35 115 -42.5t91.5 15.5t35.5 72q0 51 -55 67t-111 -13v82l57 96q-273 46 -428.5 245.5t-155.5 501.5z" />
    <glyph glyph-name="Egrave" unicode="&#xc8;" horiz-adv-x="1310" 
d="M141 0v1493h1078v-326h-697v-239h590v-305h-590v-297h697v-326h-1078zM178 1843l146 238l456 -342l-104 -172z" />
    <glyph glyph-name="Eacute" unicode="&#xc9;" horiz-adv-x="1310" 
d="M141 0v1493h1078v-326h-697v-239h590v-305h-590v-297h697v-326h-1078zM571 1731l457 342l146 -238l-498 -279z" />
    <glyph glyph-name="Ecircumflex" unicode="&#xca;" horiz-adv-x="1310" 
d="M141 0v1493h1078v-326h-697v-239h590v-305h-590v-297h697v-326h-1078zM274 1731l301 290h199l303 -290l-170 -166l-231 250l-234 -250z" />
    <glyph glyph-name="Edieresis" unicode="&#xcb;" horiz-adv-x="1310" 
d="M141 0v1493h1078v-326h-697v-239h590v-305h-590v-297h697v-326h-1078zM317 1589v320h273v-320h-273zM762 1589v320h272v-320h-272z" />
    <glyph glyph-name="Igrave" unicode="&#xcc;" horiz-adv-x="663" 
d="M-166 1843l146 238l456 -342l-104 -172zM141 0v1493h381v-1493h-381z" />
    <glyph glyph-name="Iacute" unicode="&#xcd;" horiz-adv-x="663" 
d="M141 0v1493h381v-1493h-381zM227 1731l457 342l145 -238l-497 -279z" />
    <glyph glyph-name="Icircumflex" unicode="&#xce;" horiz-adv-x="663" 
d="M-68 1731l301 290h199l303 -290l-170 -166l-231 250l-234 -250zM141 0v1493h381v-1493h-381z" />
    <glyph glyph-name="Idieresis" unicode="&#xcf;" horiz-adv-x="663" 
d="M-27 1589v320h273v-320h-273zM141 0v1493h381v-1493h-381zM418 1589v320h272v-320h-272z" />
    <glyph glyph-name="Eth" unicode="&#xd0;" horiz-adv-x="1544" 
d="M-49 631v258h190v604h645q223 0 381 -95t236 -262t78 -391t-78.5 -390.5t-236.5 -260.5t-380 -94h-645v631h-190zM522 326h199q66 0 117 10.5t98 39.5t78 76t49 123.5t18 178.5q0 121 -26 204t-76.5 127.5t-112 63t-145.5 18.5h-199v-278h185v-258h-185v-305z" />
    <glyph glyph-name="Ntilde" unicode="&#xd1;" horiz-adv-x="1624" 
d="M141 0v1493h437l532 -948h16l-22 420v528h379v-1493h-436l-529 938h-16l20 -406v-532h-381zM406 1679q48 123 120.5 176.5t149.5 51.5q61 0 134.5 -39t121.5 -39q26 0 47 7t37 23t20.5 21.5t15.5 24.5q1 1 1.5 2t1.5 2l145 -90q-42 -121 -114.5 -179.5t-155.5 -58.5
q-58 1 -133.5 41.5t-120.5 40.5q-28 0 -53 -13t-39 -26t-37 -39z" />
    <glyph glyph-name="Ograve" unicode="&#xd2;" horiz-adv-x="1597" 
d="M61 748q0 361 199.5 562t536.5 201q234 0 401.5 -96.5t251.5 -267t84 -399.5q0 -183 -53 -328.5t-150 -242t-232.5 -147t-301.5 -50.5q-233 0 -400 96t-251.5 268.5t-84.5 403.5zM299 1843l145 238l457 -342l-104 -172zM465 748q0 -207 90 -321t242 -114
q161 0 248.5 118.5t87.5 316.5q0 202 -91 317t-245 115q-157 0 -244.5 -118t-87.5 -314z" />
    <glyph glyph-name="Oacute" unicode="&#xd3;" horiz-adv-x="1597" 
d="M61 748q0 361 199.5 562t536.5 201q234 0 401.5 -96.5t251.5 -267t84 -399.5q0 -183 -53 -328.5t-150 -242t-232.5 -147t-301.5 -50.5q-233 0 -400 96t-251.5 268.5t-84.5 403.5zM465 748q0 -207 90 -321t242 -114q161 0 248.5 118.5t87.5 316.5q0 202 -91 317t-245 115
q-157 0 -244.5 -118t-87.5 -314zM692 1731l457 342l145 -238l-497 -279z" />
    <glyph glyph-name="Ocircumflex" unicode="&#xd4;" horiz-adv-x="1597" 
d="M61 748q0 361 199.5 562t536.5 201q234 0 401.5 -96.5t251.5 -267t84 -399.5q0 -183 -53 -328.5t-150 -242t-232.5 -147t-301.5 -50.5q-233 0 -400 96t-251.5 268.5t-84.5 403.5zM397 1731l301 290h199l303 -290l-170 -166l-231 250l-234 -250zM465 748q0 -207 90 -321
t242 -114q161 0 248.5 118.5t87.5 316.5q0 202 -91 317t-245 115q-157 0 -244.5 -118t-87.5 -314z" />
    <glyph glyph-name="Otilde" unicode="&#xd5;" horiz-adv-x="1597" 
d="M61 748q0 361 199.5 562t536.5 201q234 0 401.5 -96.5t251.5 -267t84 -399.5q0 -183 -53 -328.5t-150 -242t-232.5 -147t-301.5 -50.5q-233 0 -400 96t-251.5 268.5t-84.5 403.5zM401 1679q48 123 121 176.5t150 51.5q61 0 134.5 -39t121.5 -39q26 0 47 7t37 23
t20.5 21.5t15.5 24.5q1 1 1.5 2t1.5 2l145 -90q-42 -121 -114.5 -179.5t-155.5 -58.5q-58 1 -133.5 41.5t-120.5 40.5q-28 0 -53 -13t-39 -26t-37 -39zM465 748q0 -207 90 -321t242 -114q161 0 248.5 118.5t87.5 316.5q0 202 -91 317t-245 115q-157 0 -244.5 -118
t-87.5 -314z" />
    <glyph glyph-name="Odieresis" unicode="&#xd6;" horiz-adv-x="1597" 
d="M61 748q0 361 199.5 562t536.5 201q234 0 401.5 -96.5t251.5 -267t84 -399.5q0 -183 -53 -328.5t-150 -242t-232.5 -147t-301.5 -50.5q-233 0 -400 96t-251.5 268.5t-84.5 403.5zM438 1589v320h273v-320h-273zM465 748q0 -207 90 -321t242 -114q161 0 248.5 118.5
t87.5 316.5q0 202 -91 317t-245 115q-157 0 -244.5 -118t-87.5 -314zM883 1589v320h272v-320h-272z" />
    <glyph glyph-name="multiply" unicode="&#xd7;" horiz-adv-x="1349" 
d="M84 227l375 387l-375 392l213 217l365 -379h26l359 379l215 -217l-373 -392l373 -387l-215 -219l-359 377h-26l-365 -377z" />
    <glyph glyph-name="Oslash" unicode="&#xd8;" horiz-adv-x="1646" 
d="M23 342l106 78q-53 145 -53 328q0 181 52.5 325t148.5 240t231 147t301 51q348 0 545 -206l110 79l160 -225l-129 -92q51 -140 51 -319q0 -366 -199 -567t-538 -201q-341 0 -537 202l-108 -78zM479 748q0 -24 4 -74l559 405q-90 101 -233 101q-157 0 -243.5 -118
t-86.5 -314zM584 408q89 -95 225 -95q161 0 248.5 118.5t87.5 316.5q0 43 -2 63z" />
    <glyph glyph-name="Ugrave" unicode="&#xd9;" horiz-adv-x="1576" 
d="M129 578v915h379v-893q0 -133 73 -208t207 -75q131 0 206 73.5t75 209.5v893h381v-915q0 -280 -181 -439t-483 -159q-167 0 -294 43t-206 123t-118 188t-39 244zM289 1843l145 238l457 -342l-105 -172z" />
    <glyph glyph-name="Uacute" unicode="&#xda;" horiz-adv-x="1576" 
d="M129 578v915h379v-893q0 -133 73 -208t207 -75q131 0 206 73.5t75 209.5v893h381v-915q0 -280 -181 -439t-483 -159q-167 0 -294 43t-206 123t-118 188t-39 244zM682 1731l457 342l145 -238l-498 -279z" />
    <glyph glyph-name="Ucircumflex" unicode="&#xdb;" horiz-adv-x="1576" 
d="M129 578v915h379v-893q0 -133 73 -208t207 -75q131 0 206 73.5t75 209.5v893h381v-915q0 -280 -181 -439t-483 -159q-167 0 -294 43t-206 123t-118 188t-39 244zM387 1731l301 290h199l303 -290l-170 -166l-232 250l-233 -250z" />
    <glyph glyph-name="Udieresis" unicode="&#xdc;" horiz-adv-x="1576" 
d="M129 578v915h379v-893q0 -133 73 -208t207 -75q131 0 206 73.5t75 209.5v893h381v-915q0 -280 -181 -439t-483 -159q-167 0 -294 43t-206 123t-118 188t-39 244zM428 1589v320h272v-320h-272zM872 1589v320h273v-320h-273z" />
    <glyph glyph-name="Yacute" unicode="&#xdd;" horiz-adv-x="1490" 
d="M0 1493h451l133 -283l153 -315h15l153 309l137 289h449l-555 -934v-559h-383v559zM639 1731l457 342l145 -238l-498 -279z" />
    <glyph glyph-name="Thorn" unicode="&#xde;" horiz-adv-x="1359" 
d="M113 0v1536h381v-248h268q244 0 397.5 -143t153.5 -373q0 -151 -74 -271.5t-198.5 -185.5t-274.5 -65h-272v-250h-381zM494 573h198q99 0 156 53.5t57 139.5q0 84 -65.5 135t-147.5 51h-198v-379z" />
    <glyph glyph-name="germandbls" unicode="&#xdf;" horiz-adv-x="1290" 
d="M10 809v278h137q3 230 139.5 346.5t372.5 116.5q222 0 350 -104.5t128 -271.5q0 -113 -57.5 -194t-155.5 -116v-16q144 -26 228.5 -133.5t84.5 -259.5q0 -222 -153 -338.5t-416 -116.5h-82v293h47q113 0 176 60t63 161q0 100 -64 151.5t-175 51.5h-37v254h18q74 0 119 41
t45 108q0 62 -36 98.5t-99 36.5q-67 0 -102 -37t-35 -102v-1116h-359v809h-137z" />
    <glyph glyph-name="agrave" unicode="&#xe0;" horiz-adv-x="1161" 
d="M39 311q0 168 109 262.5t294 94.5h277v61q0 65 -40 97t-112 32q-71 0 -112 -31.5t-41 -85.5h-351q17 185 158.5 286t370.5 101q246 0 367.5 -115t121.5 -319v-694h-313l-37 180h-18q-35 -99 -124.5 -149.5t-207.5 -50.5q-155 0 -248.5 91t-93.5 240zM86 1462l145 238
l457 -342l-104 -172zM401 352q0 -48 34.5 -76t96.5 -28q89 0 139 49.5t50 130.5v23h-186q-66 0 -100 -26t-34 -73z" />
    <glyph glyph-name="aacute" unicode="&#xe1;" horiz-adv-x="1161" 
d="M39 311q0 168 109 262.5t294 94.5h277v61q0 65 -40 97t-112 32q-71 0 -112 -31.5t-41 -85.5h-351q17 185 158.5 286t370.5 101q246 0 367.5 -115t121.5 -319v-694h-313l-37 180h-18q-35 -99 -124.5 -149.5t-207.5 -50.5q-155 0 -248.5 91t-93.5 240zM401 352
q0 -48 34.5 -76t96.5 -28q89 0 139 49.5t50 130.5v23h-186q-66 0 -100 -26t-34 -73zM479 1350l457 342l145 -238l-497 -278z" />
    <glyph glyph-name="acircumflex" unicode="&#xe2;" horiz-adv-x="1161" 
d="M39 311q0 168 109 262.5t294 94.5h277v61q0 65 -40 97t-112 32q-71 0 -112 -31.5t-41 -85.5h-351q17 185 158.5 286t370.5 101q246 0 367.5 -115t121.5 -319v-694h-313l-37 180h-18q-35 -99 -124.5 -149.5t-207.5 -50.5q-155 0 -248.5 91t-93.5 240zM184 1350l301 290
h199l303 -290l-170 -166l-231 250l-234 -250zM401 352q0 -48 34.5 -76t96.5 -28q89 0 139 49.5t50 130.5v23h-186q-66 0 -100 -26t-34 -73z" />
    <glyph glyph-name="atilde" unicode="&#xe3;" horiz-adv-x="1161" 
d="M39 311q0 168 109 262.5t294 94.5h277v61q0 65 -40 97t-112 32q-71 0 -112 -31.5t-41 -85.5h-351q17 185 158.5 286t370.5 101q246 0 367.5 -115t121.5 -319v-694h-313l-37 180h-18q-35 -99 -124.5 -149.5t-207.5 -50.5q-155 0 -248.5 91t-93.5 240zM188 1298
q48 123 121 176.5t150 51.5q61 0 134.5 -39t121.5 -39q26 0 47 7t37 23t20.5 21.5t15.5 24.5q2 3 3 4l145 -90q-42 -121 -114.5 -179.5t-155.5 -58.5q-58 1 -133.5 41.5t-120.5 40.5q-28 0 -53 -13t-39 -26t-37 -39zM401 352q0 -48 34.5 -76t96.5 -28q89 0 139 49.5
t50 130.5v23h-186q-66 0 -100 -26t-34 -73z" />
    <glyph glyph-name="adieresis" unicode="&#xe4;" horiz-adv-x="1161" 
d="M39 311q0 168 109 262.5t294 94.5h277v61q0 65 -40 97t-112 32q-71 0 -112 -31.5t-41 -85.5h-351q17 185 158.5 286t370.5 101q246 0 367.5 -115t121.5 -319v-694h-313l-37 180h-18q-35 -99 -124.5 -149.5t-207.5 -50.5q-155 0 -248.5 91t-93.5 240zM225 1208v320h273
v-320h-273zM401 352q0 -48 34.5 -76t96.5 -28q89 0 139 49.5t50 130.5v23h-186q-66 0 -100 -26t-34 -73zM670 1208v320h272v-320h-272z" />
    <glyph glyph-name="aring" unicode="&#xe5;" horiz-adv-x="1161" 
d="M39 311q0 168 109 262.5t294 94.5h277v61q0 65 -40 97t-112 32q-71 0 -112 -31.5t-41 -85.5h-351q12 138 96.5 231t225.5 132q-76 73 -76 188q0 118 77 190t198 72t197.5 -72t76.5 -190q0 -115 -74 -186q149 -40 223 -147t74 -265v-694h-313l-37 180h-18
q-35 -99 -124.5 -149.5t-207.5 -50.5q-155 0 -248.5 91t-93.5 240zM401 352q0 -48 34.5 -76t96.5 -28q89 0 139 49.5t50 130.5v23h-186q-66 0 -100 -26t-34 -73zM500 1292q0 -40 23 -66t61 -26t62 26t24 66q0 43 -24 68.5t-62 25.5t-61 -25.5t-23 -68.5z" />
    <glyph glyph-name="ae" unicode="&#xe6;" horiz-adv-x="1830" 
d="M29 330q0 164 111.5 258t318.5 94h227v47q0 58 -40 91.5t-105 33.5q-59 0 -98.5 -31.5t-41.5 -77.5h-360q11 175 147 279t369 104q205 0 336 -114q130 114 348 114q244 0 387.5 -145t143.5 -381q0 -30 -9 -133h-719q0 -102 60 -156.5t158 -54.5q70 0 127.5 31.5
t72.5 81.5h320q-19 -176 -164.5 -283.5t-357.5 -107.5q-282 0 -424 167q-60 -81 -162 -124t-232 -43q-185 0 -299 96.5t-114 253.5zM393 344q0 -42 30.5 -66t86.5 -24q82 0 131 43t49 109v40h-164q-133 0 -133 -102zM1047 700h374q-6 80 -55.5 119t-122.5 39q-82 0 -134 -41
t-62 -117z" />
    <glyph glyph-name="ccedilla" unicode="&#xe7;" horiz-adv-x="1173" 
d="M49 555q0 258 154 415.5t409 157.5q218 0 363.5 -119t157.5 -317h-355q-12 71 -57.5 107.5t-112.5 36.5q-97 0 -145.5 -74.5t-48.5 -208.5q0 -141 51 -211t141 -70q74 0 118 39.5t52 106.5h357q-9 -195 -151 -315t-361 -123l-33 -62q29 1 62 -8t66.5 -28t55 -56t21.5 -86
q0 -80 -47.5 -136t-118 -76.5t-151 -13.5t-146.5 42v163q89 -55 165 -42t76 87q0 51 -54.5 67t-110.5 -13v82l57 96q-191 43 -302.5 192.5t-111.5 366.5z" />
    <glyph glyph-name="egrave" unicode="&#xe8;" horiz-adv-x="1189" 
d="M49 551q0 262 152.5 419.5t402.5 157.5q241 0 386 -137.5t145 -365.5q0 -86 -17 -156h-710q-4 -104 48.5 -161.5t147.5 -57.5q66 0 116.5 29.5t65.5 76.5h355q-29 -169 -175.5 -272.5t-355.5 -103.5q-252 0 -406.5 156.5t-154.5 414.5zM88 1462l145 238l457 -342
l-104 -172zM412 700h362q-2 74 -50.5 117t-131.5 43q-79 0 -128 -44t-52 -116z" />
    <glyph glyph-name="eacute" unicode="&#xe9;" horiz-adv-x="1189" 
d="M49 551q0 262 152.5 419.5t402.5 157.5q241 0 386 -137.5t145 -365.5q0 -86 -17 -156h-710q-4 -104 48.5 -161.5t147.5 -57.5q66 0 116.5 29.5t65.5 76.5h355q-29 -169 -175.5 -272.5t-355.5 -103.5q-252 0 -406.5 156.5t-154.5 414.5zM412 700h362q-2 74 -50.5 117
t-131.5 43q-79 0 -128 -44t-52 -116zM481 1350l457 342l145 -238l-497 -278z" />
    <glyph glyph-name="ecircumflex" unicode="&#xea;" horiz-adv-x="1189" 
d="M49 551q0 262 152.5 419.5t402.5 157.5q241 0 386 -137.5t145 -365.5q0 -86 -17 -156h-710q-4 -104 48.5 -161.5t147.5 -57.5q66 0 116.5 29.5t65.5 76.5h355q-29 -169 -175.5 -272.5t-355.5 -103.5q-252 0 -406.5 156.5t-154.5 414.5zM186 1350l301 290h199l303 -290
l-170 -166l-231 250l-234 -250zM412 700h362q-2 74 -50.5 117t-131.5 43q-79 0 -128 -44t-52 -116z" />
    <glyph glyph-name="edieresis" unicode="&#xeb;" horiz-adv-x="1189" 
d="M49 551q0 262 152.5 419.5t402.5 157.5q241 0 386 -137.5t145 -365.5q0 -86 -17 -156h-710q-4 -104 48.5 -161.5t147.5 -57.5q66 0 116.5 29.5t65.5 76.5h355q-29 -169 -175.5 -272.5t-355.5 -103.5q-252 0 -406.5 156.5t-154.5 414.5zM227 1208v320h273v-320h-273z
M412 700h362q-2 74 -50.5 117t-131.5 43q-79 0 -128 -44t-52 -116zM672 1208v320h272v-320h-272z" />
    <glyph glyph-name="igrave" unicode="&#xec;" horiz-adv-x="575" 
d="M-209 1458l146 238l456 -342l-104 -172zM109 0v1108h360v-1108h-360z" />
    <glyph glyph-name="iacute" unicode="&#xed;" horiz-adv-x="575" 
d="M109 0v1108h360v-1108h-360zM184 1346l457 342l145 -238l-497 -279z" />
    <glyph glyph-name="icircumflex" unicode="&#xee;" horiz-adv-x="575" 
d="M-111 1346l301 290h199l303 -290l-170 -166l-231 250l-234 -250zM109 0v1108h360v-1108h-360z" />
    <glyph glyph-name="idieresis" unicode="&#xef;" horiz-adv-x="575" 
d="M-70 1204v320h273v-320h-273zM109 0v1108h360v-1108h-360zM375 1204v320h272v-320h-272z" />
    <glyph glyph-name="eth" unicode="&#xf0;" horiz-adv-x="1257" 
d="M61 498q0 218 135 349.5t357 131.5q75 0 125 -18l8 10l-82 71l-82 101l-282 -103v254l141 52l-133 202h430l47 -78l281 105v-254l-146 -49l96 -154q10 -16 50 -76.5t55.5 -85.5t45.5 -83t43 -99.5t24.5 -102t11.5 -122.5q0 -170 -73.5 -299.5t-203.5 -198.5t-295 -69
q-245 0 -399 145.5t-154 370.5zM428 504q0 -102 53.5 -166t141.5 -64q90 0 142 64t52 170q0 102 -53.5 166.5t-140.5 64.5q-90 0 -142.5 -64t-52.5 -171z" />
    <glyph glyph-name="ntilde" unicode="&#xf1;" horiz-adv-x="1323" 
d="M109 0v1108h315l45 -203h18q51 109 144 166t217 57q98 0 172 -34.5t118.5 -98t66.5 -148t22 -190.5v-657h-361v621q0 215 -184 215q-102 0 -157.5 -69t-55.5 -181v-586h-360zM276 1298q48 123 121 176.5t150 51.5q61 0 134.5 -39t121.5 -39q26 0 47 7t37 23t20.5 21.5
t15.5 24.5q2 3 3 4l145 -90q-42 -121 -114.5 -179.5t-155.5 -58.5q-58 1 -133.5 41.5t-120.5 40.5q-28 0 -53 -13t-39 -26t-37 -39z" />
    <glyph glyph-name="ograve" unicode="&#xf2;" horiz-adv-x="1222" 
d="M49 555q0 255 154.5 414t408.5 159q252 0 407 -159.5t155 -415.5q0 -254 -154.5 -412.5t-407.5 -158.5q-254 0 -408.5 158.5t-154.5 414.5zM113 1462l145 238l457 -342l-105 -172zM414 553q0 -130 54 -204.5t142 -74.5q95 0 146 76.5t51 204.5q0 129 -53.5 205t-145.5 76
q-93 0 -143.5 -78t-50.5 -205z" />
    <glyph glyph-name="oacute" unicode="&#xf3;" horiz-adv-x="1222" 
d="M49 555q0 255 154.5 414t408.5 159q252 0 407 -159.5t155 -415.5q0 -254 -154.5 -412.5t-407.5 -158.5q-254 0 -408.5 158.5t-154.5 414.5zM414 553q0 -130 54 -204.5t142 -74.5q95 0 146 76.5t51 204.5q0 129 -53.5 205t-145.5 76q-93 0 -143.5 -78t-50.5 -205z
M506 1350l457 342l145 -238l-498 -278z" />
    <glyph glyph-name="ocircumflex" unicode="&#xf4;" horiz-adv-x="1222" 
d="M49 555q0 255 154.5 414t408.5 159q252 0 407 -159.5t155 -415.5q0 -254 -154.5 -412.5t-407.5 -158.5q-254 0 -408.5 158.5t-154.5 414.5zM211 1350l301 290h199l303 -290l-170 -166l-232 250l-233 -250zM414 553q0 -130 54 -204.5t142 -74.5q95 0 146 76.5t51 204.5
q0 129 -53.5 205t-145.5 76q-93 0 -143.5 -78t-50.5 -205z" />
    <glyph glyph-name="otilde" unicode="&#xf5;" horiz-adv-x="1222" 
d="M49 555q0 255 154.5 414t408.5 159q252 0 407 -159.5t155 -415.5q0 -254 -154.5 -412.5t-407.5 -158.5q-254 0 -408.5 158.5t-154.5 414.5zM217 1298q48 123 120.5 176.5t149.5 51.5q61 0 134.5 -39t121.5 -39q26 0 47 7t37 23t20.5 21.5t15.5 24.5q2 3 3 4l146 -90
q-42 -120 -115 -179t-156 -59q-58 1 -133.5 41.5t-120.5 40.5q-28 0 -53 -13t-39 -26t-37 -39zM414 553q0 -130 54 -204.5t142 -74.5q95 0 146 76.5t51 204.5q0 129 -53.5 205t-145.5 76q-93 0 -143.5 -78t-50.5 -205z" />
    <glyph glyph-name="odieresis" unicode="&#xf6;" horiz-adv-x="1222" 
d="M49 555q0 255 154.5 414t408.5 159q252 0 407 -159.5t155 -415.5q0 -254 -154.5 -412.5t-407.5 -158.5q-254 0 -408.5 158.5t-154.5 414.5zM252 1208v320h272v-320h-272zM414 553q0 -130 54 -204.5t142 -74.5q95 0 146 76.5t51 204.5q0 129 -53.5 205t-145.5 76
q-93 0 -143.5 -78t-50.5 -205zM696 1208v320h273v-320h-273z" />
    <glyph glyph-name="divide" unicode="&#xf7;" horiz-adv-x="1292" 
d="M141 449v282h1008v-282h-1008zM469 -2v332h354v-332h-354zM469 842v332h354v-332h-354z" />
    <glyph glyph-name="oslash" unicode="&#xf8;" horiz-adv-x="1292" 
d="M16 236l107 77q-45 112 -45 242q0 255 155.5 414t407.5 159q245 0 395 -147l113 82l127 -186l-115 -84q43 -107 43 -240q0 -255 -154.5 -413t-408.5 -158q-241 0 -395 145l-105 -76zM444 549l320 233q-48 54 -127 54q-93 0 -143 -78t-50 -205v-4zM518 326q52 -52 123 -52
q93 0 144 76.5t51 204.5v2z" />
    <glyph glyph-name="ugrave" unicode="&#xf9;" horiz-adv-x="1302" 
d="M96 420v688h363v-631q0 -102 45 -153.5t131 -51.5q97 0 153 69.5t56 180.5v586h360v-1108h-317l-45 203h-21q-104 -223 -352 -223q-186 0 -279.5 118t-93.5 322zM154 1462l145 238l457 -342l-105 -172z" />
    <glyph glyph-name="uacute" unicode="&#xfa;" horiz-adv-x="1302" 
d="M96 420v688h363v-631q0 -102 45 -153.5t131 -51.5q97 0 153 69.5t56 180.5v586h360v-1108h-317l-45 203h-21q-104 -223 -352 -223q-186 0 -279.5 118t-93.5 322zM547 1350l457 342l145 -238l-498 -278z" />
    <glyph glyph-name="ucircumflex" unicode="&#xfb;" horiz-adv-x="1302" 
d="M96 420v688h363v-631q0 -102 45 -153.5t131 -51.5q97 0 153 69.5t56 180.5v586h360v-1108h-317l-45 203h-21q-104 -223 -352 -223q-186 0 -279.5 118t-93.5 322zM252 1350l301 290h199l303 -290l-170 -166l-232 250l-233 -250z" />
    <glyph glyph-name="udieresis" unicode="&#xfc;" horiz-adv-x="1302" 
d="M96 420v688h363v-631q0 -102 45 -153.5t131 -51.5q97 0 153 69.5t56 180.5v586h360v-1108h-317l-45 203h-21q-104 -223 -352 -223q-186 0 -279.5 118t-93.5 322zM293 1208v320h272v-320h-272zM737 1208v320h273v-320h-273z" />
    <glyph glyph-name="yacute" unicode="&#xfd;" horiz-adv-x="1112" 
d="M-27 1108h385l111 -385l82 -305h16l80 305l107 385h374l-393 -1131q-34 -98 -84.5 -165t-119.5 -104.5t-148.5 -53.5t-183.5 -16q-81 0 -156 14v287q55 -9 125 -9q171 0 201 109l12 45zM436 1352l457 342l145 -238l-497 -278z" />
    <glyph glyph-name="thorn" unicode="&#xfe;" horiz-adv-x="1335" 
d="M109 -342v1835h360v-588h18q45 104 141.5 163.5t215.5 59.5q206 0 324 -156t118 -425q0 -265 -119.5 -416t-320.5 -151q-133 0 -227.5 58.5t-131.5 158.5h-18v-539h-360zM469 524q0 -114 60.5 -184t164.5 -70q112 0 171 76t59 205q0 142 -60.5 214.5t-165.5 72.5
q-104 0 -166.5 -70t-62.5 -186v-58z" />
    <glyph glyph-name="ydieresis" unicode="&#xff;" horiz-adv-x="1112" 
d="M-27 1108h385l111 -385l82 -305h16l80 305l107 385h374l-393 -1131q-34 -98 -84.5 -165t-119.5 -104.5t-148.5 -53.5t-183.5 -16q-81 0 -156 14v287q55 -9 125 -9q171 0 201 109l12 45zM182 1212v320h273v-320h-273zM627 1212v320h272v-320h-272z" />
    <glyph glyph-name="OE" unicode="&#x152;" horiz-adv-x="1927" 
d="M61 748q0 218 90.5 387t256.5 262.5t380 93.5h1049v-324h-612v-274h424v-303h-424v-264h612v-324h-1046q-215 0 -381.5 94.5t-257.5 264t-91 387.5zM465 748q0 -187 89.5 -304.5t236.5 -117.5h53v837h-53q-147 0 -236.5 -115.5t-89.5 -299.5z" />
    <glyph glyph-name="oe" unicode="&#x153;" horiz-adv-x="1992" 
d="M49 555q0 255 154.5 414t408.5 159q246 0 400 -151q151 151 395 151q241 0 385.5 -137.5t144.5 -365.5q0 -90 -16 -156h-711q-4 -104 49 -161.5t148 -57.5q67 0 117 29.5t65 76.5h357q-31 -169 -177.5 -272.5t-355.5 -103.5q-247 0 -401 151q-155 -149 -400 -149
q-254 0 -408.5 158.5t-154.5 414.5zM414 553q0 -130 54 -204.5t142 -74.5q95 0 146 76.5t51 204.5q0 129 -53.5 205t-145.5 76q-93 0 -143.5 -78t-50.5 -205zM1214 700h363q-2 74 -50.5 117t-131.5 43q-79 0 -128.5 -44t-52.5 -116z" />
    <glyph glyph-name="Ydieresis" unicode="&#x178;" horiz-adv-x="1490" 
d="M0 1493h451l133 -283l153 -315h15l153 309l137 289h449l-555 -934v-559h-383v559zM385 1589v320h272v-320h-272zM829 1589v320h273v-320h-273z" />
    <glyph glyph-name="circumflex" unicode="&#x2c6;" horiz-adv-x="786" 
d="M-6 1626l301 291h199l303 -291l-170 -166l-232 250l-233 -250z" />
    <glyph glyph-name="tilde" unicode="&#x2dc;" horiz-adv-x="729" 
d="M-33 1575q48 123 121 176t150 51q61 0 134.5 -39t121.5 -39q12 0 22.5 2t19 4t17.5 7t14.5 8.5t12.5 10t10 10t8.5 11t7 10t6.5 9.5l4 8l146 -90q-42 -120 -114.5 -178.5t-155.5 -58.5q-58 1 -133.5 41.5t-120.5 40.5q-28 0 -53 -13t-39 -26t-37 -39z" />
    <glyph glyph-name="uni2000" unicode="&#x2000;" horiz-adv-x="1040" 
 />
    <glyph glyph-name="uni2001" unicode="&#x2001;" horiz-adv-x="2081" 
 />
    <glyph glyph-name="uni2002" unicode="&#x2002;" horiz-adv-x="1040" 
 />
    <glyph glyph-name="uni2003" unicode="&#x2003;" horiz-adv-x="2081" 
 />
    <glyph glyph-name="uni2004" unicode="&#x2004;" horiz-adv-x="693" 
 />
    <glyph glyph-name="uni2005" unicode="&#x2005;" horiz-adv-x="520" 
 />
    <glyph glyph-name="uni2006" unicode="&#x2006;" horiz-adv-x="346" 
 />
    <glyph glyph-name="uni2007" unicode="&#x2007;" horiz-adv-x="346" 
 />
    <glyph glyph-name="uni2008" unicode="&#x2008;" horiz-adv-x="260" 
 />
    <glyph glyph-name="uni2009" unicode="&#x2009;" horiz-adv-x="416" 
 />
    <glyph glyph-name="uni200A" unicode="&#x200a;" horiz-adv-x="115" 
 />
    <glyph glyph-name="uni2010" unicode="&#x2010;" horiz-adv-x="978" 
d="M111 518v193h755v-193h-755z" />
    <glyph glyph-name="uni2011" unicode="&#x2011;" horiz-adv-x="978" 
d="M111 518v193h755v-193h-755z" />
    <glyph glyph-name="figuredash" unicode="&#x2012;" horiz-adv-x="978" 
d="M111 518v193h755v-193h-755z" />
    <glyph glyph-name="endash" unicode="&#x2013;" horiz-adv-x="1339" 
d="M111 518v193h1116v-193h-1116z" />
    <glyph glyph-name="emdash" unicode="&#x2014;" horiz-adv-x="1740" 
d="M111 518v193h1517v-193h-1517z" />
    <glyph glyph-name="quoteleft" unicode="&#x2018;" horiz-adv-x="495" 
d="M57 860v334q0 144 99 223.5t266 79.5v-123q-195 0 -195 -162v-12h160v-340h-330z" />
    <glyph glyph-name="quoteright" unicode="&#x2019;" horiz-adv-x="493" 
d="M70 874v123q194 0 194 162v12h-160v340h330v-333q0 -144 -98.5 -224t-265.5 -80z" />
    <glyph glyph-name="quotesinglbase" unicode="&#x201a;" horiz-adv-x="493" 
d="M70 -174q196 0 196 162v12h-160v338h330v-334q0 -142 -99.5 -221.5t-266.5 -79.5v123z" />
    <glyph glyph-name="quotedblleft" unicode="&#x201c;" horiz-adv-x="1013" 
d="M63 860v334q0 144 99 223.5t266 79.5v-123q-102 0 -149.5 -43.5t-47.5 -118.5v-12h162v-340h-330zM575 860v334q0 144 99 223.5t266 79.5v-123q-195 0 -195 -162v-12h160v-340h-330z" />
    <glyph glyph-name="quotedblright" unicode="&#x201d;" horiz-adv-x="999" 
d="M80 874v123q196 0 196 162v12h-159v340h327v-333q0 -144 -98.5 -224t-265.5 -80zM580 874v123q196 0 196 162v12h-160v340h328v-333q0 -144 -98.5 -224t-265.5 -80z" />
    <glyph glyph-name="quotedblbase" unicode="&#x201e;" horiz-adv-x="950" 
d="M68 -174q196 0 196 162v12h-160v338h328v-334q0 -143 -98.5 -222t-265.5 -79v123zM524 -174q197 0 197 162v12h-160v338h328v-334q0 -143 -99 -222t-266 -79v123z" />
    <glyph glyph-name="bullet" unicode="&#x2022;" horiz-adv-x="804" 
d="M86 567q0 143 90 236.5t230 93.5q135 0 224 -94.5t89 -235.5q0 -142 -88.5 -232.5t-224.5 -90.5q-141 0 -230.5 90.5t-89.5 232.5z" />
    <glyph glyph-name="ellipsis" unicode="&#x2026;" horiz-adv-x="1667" 
d="M127 0v365h330v-365h-330zM670 0v365h327v-365h-327zM1212 0v365h330v-365h-330z" />
    <glyph glyph-name="uni202F" unicode="&#x202f;" horiz-adv-x="416" 
 />
    <glyph glyph-name="guilsinglleft" unicode="&#x2039;" horiz-adv-x="649" 
d="M43 561l244 443h305l-225 -443l225 -446h-305z" />
    <glyph glyph-name="guilsinglright" unicode="&#x203a;" horiz-adv-x="647" 
d="M57 115l224 446l-224 443h308l239 -443l-239 -446h-308z" />
    <glyph glyph-name="uni205F" unicode="&#x205f;" horiz-adv-x="520" 
 />
    <glyph glyph-name="Euro" unicode="&#x20ac;" horiz-adv-x="1507" 
d="M49 469v223h109q-2 18 -2 56q0 39 2 57h-109v221h141q63 233 228.5 359t402.5 126q248 0 411 -128.5t202 -344.5h-400q-24 72 -80 108t-133 36q-163 0 -231 -156h371l-27 -221h-391q-2 -18 -2 -57q0 -38 2 -56h377l-35 -223h-295q72 -156 231 -156t213 144h400
q-38 -220 -202.5 -347.5t-410.5 -127.5q-244 0 -407 129t-224 358h-141z" />
    <glyph glyph-name="trademark" unicode="&#x2122;" horiz-adv-x="1308" 
d="M16 1366v139h492v-139h-172v-500h-156v500h-164zM594 866v639h192l144 -327h4l143 327h191v-639h-150v246l8 174h-6l-188 -409l-189 409h-10l12 -174v-246h-151z" />
    <glyph glyph-name="uni25FC" unicode="&#x25fc;" horiz-adv-x="1105" 
d="M0 0v1106h1106v-1106h-1106z" />
    <glyph glyph-name="uniFB03" unicode="&#xfb03;" horiz-adv-x="2121" 
d="M14 817v291h211v51q0 194 115.5 292.5t316.5 98.5q92 0 164 -20v-281q-51 11 -86 11q-75 0 -112 -32.5t-37 -90.5v-29h350v51q0 194 115.5 292.5t316.5 98.5q94 0 166 -20v-281q-51 11 -88 11q-75 0 -112.5 -32.5t-37.5 -90.5v-29h719v-1108h-360v817h-359v-817h-360v817
h-350v-817h-361v817h-211zM1655 1198v330h360v-330h-360z" />
    </font>
</defs>
</svg>
